Asesino Ninja 2009 [720p][Dual Latino][Mega]

Compartir:

Asesino Ninja 720p [2009] Latino Mega

Título original: Ninja Assassin
Año: 2009
Duración: 99 min.
País: Estados Unidos Estados Unidos
Director:James McTeigue
Guión: Matthew Sand, J. Michael Straczynski
Música: Ilan Eshkeri
Fotografía: Karl Walter Lindenlaub
Reparto: Rain, Naomie Harris, Rick Yune, Ben Miles, Shô Kosugi, Togo Igawa, Numan Acar, Richard van Weyden, Sung Kang
Productora: Dark Castle Entertainment
Género: Acción | Ninjas. Artes marciales. Gore
Sinopsis
Raizo (Rain) es un niño de la calle al que el Clan Ozunu transforma en una máquina programada para matar; pero, cuando el Clan asesina a uno de sus amigos, Raizo desaparece y prepara su venganza. En Berlin, la agente de Europol Mika Coretti (Naomie Harris) ha encontrado una pista que demuestra que los responsables de algunos asesinatos políticos son asesinos del Lejano Oriente.
Ninja.Assassin.2009.720p.BrRip.mkv
Format : Matroska
Format version : Version 4 / Version 2
File size : 966 MiB
Duration : 1 h 38 min
Overall bit rate : 1 369 kb/s
Encoded date : UTC 2015-08-22 01:18:11
Writing application : mkvmerge v7.9.0 ('Birds') 64bit
Writing library : libebml v1.3.1 + libmatroska v1.4.2
Video
ID : 1
Format : AVC
Format/Info : Advanced Video Codec
Format profile :
#Enlace 1 en Ouo.io#
Format settings, CABAC : Yes
Format settings, ReFrames : 4 frames
Codec ID : V_MPEG4/ISO/AVC
Duration : 1 h 38 min
Bit rate : 827 kb/s
Width : 1 280 pixels
Height : 544 pixels
Display aspect ratio : 2.35:1
Frame rate mode : Constant
Frame rate : 23.976 (24000/1001) FPS
Color space : YUV
Chroma subsampling : 4:2:0
Bit depth : 8 bits
Scan type : Progressive
Bits/(Pixel*Frame) : 0.050
Stream size : 583 MiB (60%)
Default : Yes
Forced : No
Audio #1
ID : 2
Format : AAC
Format/Info : Advanced Audio Codec
Format profile : LC
Codec ID : A_AAC
Duration : 1 h 38 min
Bit rate : 92.0 kb/s
Channel(s) : 2 channels
Channel positions : Front: L R
Sampling rate : 48.0 kHz
Frame rate : 46.875 FPS (1024 spf)
Compression mode : Lossy
Stream size : 64.9 MiB (7%)
Default : No
Forced : No
Audio #2
ID : 3
Format : AC-3
Format/Info : Audio Coding 3
Mode extension : CM (complete main)
Format settings, Endianness : Big
Codec ID : A_AC3
Duration : 1 h 38 min
Bit rate mode : Constant
Bit rate : 448 kb/s
Channel(s) : 6 channels
Channel positions : Front: L C R, Side: L R, LFE
Sampling rate : 48.0 kHz
Frame rate : 31.250 FPS (1536 spf)
Compression mode : Lossy
Stream size : 316 MiB (33%)
Language : Spanish
Default : Yes
Forced : No


#Enlace 2 en Mega.nz#

Descarga este programa para romper contraseñas

Publicaciones Relacionadas

« »

Asesino Ninja 2009 [720p][Dual Latino][Mega]

Compartir:

Asesino Ninja 720p [2009] Latino Mega

Título original: Ninja Assassin
Año: 2009
Duración: 99 min.
País: Estados Unidos Estados Unidos
Director:James McTeigue
Guión: Matthew Sand, J. Michael Straczynski
Música: Ilan Eshkeri
Fotografía: Karl Walter Lindenlaub
Reparto: Rain, Naomie Harris, Rick Yune, Ben Miles, Shô Kosugi, Togo Igawa, Numan Acar, Richard van Weyden, Sung Kang
Productora: Dark Castle Entertainment
Género: Acción | Ninjas. Artes marciales. Gore
Sinopsis
Raizo (Rain) es un niño de la calle al que el Clan Ozunu transforma en una máquina programada para matar; pero, cuando el Clan asesina a uno de sus amigos, Raizo desaparece y prepara su venganza. En Berlin, la agente de Europol Mika Coretti (Naomie Harris) ha encontrado una pista que demuestra que los responsables de algunos asesinatos políticos son asesinos del Lejano Oriente.
Ninja.Assassin.2009.720p.BrRip.mkv
Format : Matroska
Format version : Version 4 / Version 2
File size : 966 MiB
Duration : 1 h 38 min
Overall bit rate : 1 369 kb/s
Encoded date : UTC 2015-08-22 01:18:11
Writing application : mkvmerge v7.9.0 ('Birds') 64bit
Writing library : libebml v1.3.1 + libmatroska v1.4.2
Video
ID : 1
Format : AVC
Format/Info : Advanced Video Codec
Format profile :
#Enlace 1 en Ouo.io#
Format settings, CABAC : Yes
Format settings, ReFrames : 4 frames
Codec ID : V_MPEG4/ISO/AVC
Duration : 1 h 38 min
Bit rate : 827 kb/s
Width : 1 280 pixels
Height : 544 pixels
Display aspect ratio : 2.35:1
Frame rate mode : Constant
Frame rate : 23.976 (24000/1001) FPS
Color space : YUV
Chroma subsampling : 4:2:0
Bit depth : 8 bits
Scan type : Progressive
Bits/(Pixel*Frame) : 0.050
Stream size : 583 MiB (60%)
Default : Yes
Forced : No
Audio #1
ID : 2
Format : AAC
Format/Info : Advanced Audio Codec
Format profile : LC
Codec ID : A_AAC
Duration : 1 h 38 min
Bit rate : 92.0 kb/s
Channel(s) : 2 channels
Channel positions : Front: L R
Sampling rate : 48.0 kHz
Frame rate : 46.875 FPS (1024 spf)
Compression mode : Lossy
Stream size : 64.9 MiB (7%)
Default : No
Forced : No
Audio #2
ID : 3
Format : AC-3
Format/Info : Audio Coding 3
Mode extension : CM (complete main)
Format settings, Endianness : Big
Codec ID : A_AC3
Duration : 1 h 38 min
Bit rate mode : Constant
Bit rate : 448 kb/s
Channel(s) : 6 channels
Channel positions : Front: L C R, Side: L R, LFE
Sampling rate : 48.0 kHz
Frame rate : 31.250 FPS (1536 spf)
Compression mode : Lossy
Stream size : 316 MiB (33%)
Language : Spanish
Default : Yes
Forced : No


#Enlace 2 en Mega.nz#

Descarga este programa para romper contraseñas

Publicaciones Relacionadas

« »