Dos Audios Latinos de Peliculas 2016 [Mega]

Compartir:

ANGRY BIRDS SOLO AUDIO LATINO

Audio
ID : 2
Format : AC-3
Format/Info : Audio Coding 3
Mode extension : CM (complete main)
Format settings, Endianness : Big
Codec ID : A_AC3
Duration : 1 h 37 min
Bit rate mode : Constant
Bit rate : 192 kb/s
Channel(s) : 2 channels
Channel positions : Front: L R
Sampling rate : 48.0 kHz
Frame rate : 31.250 FPS (1536 spf)
Compression mode : Lossy
Stream size : 134 MiB (18%)
Language : Spanish
Default : Yes
Forced : No

#Enlace 1 en Mega.nz#
The Huntsman: Winter's War SOLO AUDIO LATINO

Audio Latino
ID : 2
Format : AC-3
Format/Info : Audio Coding 3
Mode extension : CM (complete main)
Format settings, Endianness : Big
Codec ID : A_AC3
Duration : 2 h 0 min
Bit rate mode : Constant
Bit rate : 192 kb/s
Channel(s) : 2 channels
Channel positions : Front: L R
Sampling rate : 48.0 kHz
Frame rate : 31.250 FPS (1536 spf)
Compression mode : Lossy
Delay relative to video : 300 ms
Stream size : 165 MiB (16%)
Default : Yes
Forced : No

#Enlace 2 en Mega.nz#

Descarga este programa para romper contraseñas

Publicaciones Relacionadas

« »