John Carpenters Apocalypse Trilogy 60 Fps [720p]

Categoria: Sin Categoria | Fecha de Publicacion: Hace 11 meses
John Carpenter's Apocalypse Trilogy 720p (60 Fps)
Para esta semana santa 


En el curso de 13 años el director de cine John Carpenter creó tres trabajos cinematográficos, aparentemente inconexos, que conforman lo que él mismo ha denominado como su “trilogía del Apocalipsis”: La cosa (The Thing, 1982), El príncipe de las tinieblas (Prince of Darkness, 1987) y En la boca del miedo (In The Mouth of Madness, 1995). No solamente están separadas por la fecha de estreno, sino que son también diferentes en estilo, trama y calidad. Estas películas fueron filmadas con diferentes productoras, con distintos repartos y a partir de guiones escritos por diferentes autores. A primera vista nada las une más allá de su director y su denominación con el término de trilogía. Pero cuando empiezas a escarbar debajo de la superficie descubres que están conectadas por poderosos lazos temáticos que podrían ser fácilmente pasados por alto o ignorados en cualquiera de estas películas por si solas, pero que adquieren gran fuerza cuando se miran las tres cintas como una trilogía relacionada.
Estas conexiones temáticas corresponden básicamente a lo que se conoce como “horror cósmico”. El horror cósmico está principalmente asociado con H.P. Lovecraft, aunque su concepción estuviera a su vez inspirada en autores anteriores como Algernon Blackwood y William Hope Hodgson, y puede resumirse en una cita extraída de sus colecciones epistolares donde dijo: «Todos mis cuentos están basados en la premisa fundamental de que las leyes, intereses y emociones de la humanidad no tienen validez o significado alguno frente a la vasta totalidad del cosmos». En resumen, el horror cósmico trata menos sobre el terror que podría causar un hombre del saco específico, y más sobre el terror de un universo frío y lejano, en el que los humanos carecen de importancia.
La cosa (The Thing, 1982)


A día de hoy, La cosa es considerada generalmente como una de las obras maestras de John Carpenter, y personalmente la considero una seria aspirante a la corona de mejor película de terror de la historia. Pero no siempre fue vista con tan buenos ojos. Se estrenó en cines solo unas semanas más tarde que el más cómodo éxito de taquilla de Steven Spielberg, E.T., y ni su taquilla ni su recepción crítica fueron precisamente espectaculares.
Complete name               : D:PeliculasThe Thing (1982).mkv
Format                      : Matroska
Format version              : Version 4 / Version 2
File size                   : 4.35 GiB
Duration                    : 1h 48mn
Overall bit rate            : 5 732 Kbps
Movie name                  : The Thing - YIFY
Encoded date                : UTC 2015-05-16 03:22:12
Writing application         : mkvmerge v6.9.1 ('Blue Panther') 64bit built on Apr 18 2014 18:23:38
Writing library             : libebml v1.3.0 + libmatroska v1.4.1
Video
ID                          : 1
Format                      : AVC
Format/Info                 : Advanced Video Codec
Format profile              :
Format settings, CABAC      : Yes
Format settings, ReFrames   : 9 frames
Codec ID                    : V_MPEG4/ISO/AVC
Duration                    : 1h 48mn
Width                       : 1 280 pixels
Height                      : 544 pixels
Display aspect ratio        : 2.35:1
Frame rate mode             : Constant
Frame rate                  : 59.880 fps
Original frame rate         : 59.940 fps
Color space                 : YUV
Chroma subsampling          : 4:2:0
Bit depth                   : 8 bits
Scan type                   : Progressive
Language                    : English
Default                     : Yes
Forced                      : No
Audio #1
ID                          : 2
Format                      : AC-3
Format/Info                 : Audio Coding 3
Mode extension              : CM (complete main)
Format settings, Endianness : Big
Codec ID                    : A_AC3
Duration                    : 1h 48mn
Bit rate mode               : Constant
Bit rate                    : 640 Kbps
Channel(s)                  : 6 channels
Channel positions           : Front: L C R, Side: L R, LFE
Sampling rate               : 48.0 KHz
Compression mode            : Lossy
Stream size                 : 498 MiB (11%)
Title                       : Original
Language                    : English
Default                     : No
Forced                      : No
Audio #2
ID                          : 4
Format                      : AAC
Format/Info                 : Advanced Audio Codec
Format profile              : HE-AAC / LC
Codec ID                    : A_AAC
Duration                    : 1h 48mn
Channel(s)                  : 2 channels
Channel positions           : Front: L R
Sampling rate               : 48.0 KHz / 24.0 KHz
Compression mode            : Lossy
Title                       : latino
Default                     : Yes
Forced                      : No
Text #1
ID                          : 3
Format                      : UTF-8
Codec ID                    : S_TEXT/UTF8
Codec ID/Info               : UTF-8 Plain Text
Title                       : english
Language                    : English
Default                     : No
Forced                      : No



Enlaces De Descarga
Format settings, CABAC      : Yes
Format settings, ReFrames   : 4 frames
Codec ID                    : V_MPEG4/ISO/AVC
Duration                    : 1h 41mn
Width                       : 1 280 pixels
Height                      : 544 pixels
Display aspect ratio        : 2.35:1
Original display aspect rat : 1.000
Frame rate mode             : Constant
Frame rate                  : 60.000 fps
Original frame rate         : 59.940 fps
Color space                 : YUV
Chroma subsampling          : 4:2:0
Bit depth                   : 8 bits
Scan type                   : Progressive
Default                     : Yes
Forced                      : No
Audio #1
ID                          : 2
Format                      : MPEG Audio
Format version              : Version 1
Format profile              : Layer 3
Codec ID                    : A_MPEG/L3
Codec ID/Hint               : MP3
Duration                    : 1h 41mn
Bit rate mode               : Constant
Bit rate                    : 128 Kbps
Channel(s)                  : 2 channels
Sampling rate               : 48.0 KHz
Compression mode            : Lossy
Delay relative to video     : 1s 450ms
Stream size                 : 98.9 MiB (6%)
Title                       : latino
Writing library             : LAME3.98
Encoding settings           : -m s -V 4 -q 5 -lowpass 17 -b 128
Default                     : Yes
Forced                      : No
Audio #2
ID                          : 3
Format                      : AAC
Format/Info                 : Advanced Audio Codec
Format profile              : LC
Codec ID                    : A_AAC
Duration                    : 1h 41mn
Channel(s)                  : 2 channels
Channel positions           : Front: L R
Sampling rate               : 48.0 KHz
Compression mode            : Lossy
Title                       : eng
Default                     : No
Forced                      : No
Text
ID                          : 4
Format                      : UTF-8
Codec ID                    : S_TEXT/UTF8
Codec ID/Info               : UTF-8 Plain Text
Title                       : español
Default                     : No
Forced                      : No
El audio latino de esta película es prácticamente imposible encontrarlo a dia de hoy en la red, en su momento lo conseguí de la pagina inter-latino.com (todo el crédito al usuario sergiomar)
me pareció justo compartirlo con ustedes ya que para eso es la red, compartir!! y no guardarnos todo para nosotros mismos.



Enlaces De Descarga #Enlace 1 en Mega.nz#
En la boca del miedo (In The Mouth of Madness, 1995)


Hay mucha gente que considera En la boca del miedo la mejor adaptación de Lovecraft al formato cinematográfico jamás realizada, lo que es irónico dado que no es realmente una adaptación de ninguna de las historias de Lovecraft, aunque esta obviamente inspirada por ellas. La historia de la película sigue a John Trent (interpretado por Sam Neill), un cínico y escéptico investigador de fraudes contra aseguradoras, que es contratado para localizar al increíblemente popular escritor de terror Sutter Cane (una especie de H.P. Lovecraft pasado por el molde de Stephen King), quien ha desaparecido justo antes de completar su última novela. Mientras Trent investiga el caso y viaja a la supuestamente ficticia ciudad de Hobb’s End – donde Cane sitúa la mayoría de sus libros – comienza a cuestionarse la naturaleza de la realidad.
Complete name               : C:In the Mouth of Madness (1994).mkv
Format                      : Matroska
Format version              : Version 4 / Version 2
File size                   : 1.82 GiB
Duration                    : 1h 35mn
Overall bit rate            : 2 727 Kbps
Encoded date                : UTC 2016-01-29 04:27:11
Writing application         : mkvmerge v7.4.0 ('Circles') 64bit built on Dec 12 2014 12:19:56
Writing library             : libebml v1.3.0 + libmatroska v1.4.1
DURATION                    : 01:35:22.734000000
NUMBER_OF_FRAMES            : 343021
NUMBER_OF_BYTES             : 1536103952
_STATISTICS_WRITING_APP     : mkvmerge v7.4.0 ('Circles') 64bit built on Dec 12 2014 12:19:56
_STATISTICS_WRITING_DATE_UT : 2016-01-29 04:27:11
_STATISTICS_TAGS            : BPS DURATION NUMBER_OF_FRAMES NUMBER_OF_BYTES
Video
ID                          : 1
Format                      : AVC
Format/Info                 : Advanced Video Codec
Format profile              : #Enlace 2 en Sh.st#
Format settings, CABAC      : Yes
Format settings, ReFrames   : 4 frames
Codec ID                    : V_MPEG4/ISO/AVC
Duration                    : 1h 35mn
Bit rate                    : 2 097 Kbps
Width                       : 1 280 pixels
Height                      : 536 pixels
Display aspect ratio        : 2.35:1
Original display aspect rat : 2.40:1
Frame rate mode             : Constant
Frame rate                  : 60.000 fps
Original frame rate         : 59.940 fps
Color space                 : YUV
Chroma subsampling          : 4:2:0
Bit depth                   : 8 bits
Scan type                   : Progressive
Bits/(Pixel*Frame)          : 0.051
Stream size                 : 1.40 GiB (77%)
Default                     : Yes
Forced                      : No
Audio #1
ID                          : 2
Format                      : AC-3
Format/Info                 : Audio Coding 3
Mode extension              : CM (complete main)
Format settings, Endianness : Big
Codec ID                    : A_AC3
Duration                    : 1h 35mn
Bit rate mode               : Constant
Bit rate                    : 192 Kbps
Channel(s)                  : 1 channel
Channel positions           : Front: C
Sampling rate               : 48.0 KHz
Compression mode            : Lossy
Stream size                 : 131 MiB (7%)
Language                    : Spanish
Default                     : Yes
Forced                      : No
Audio #2
ID                          : 3
Format                      : AC-3
Format/Info                 : Audio Coding 3
Mode extension              : CM (complete main)
Format settings, Endianness : Big
Codec ID                    : A_AC3
Duration                    : 1h 35mn
Bit rate mode               : Constant
Bit rate                    : 384 Kbps
Channel(s)                  : 6 channels
Channel positions           : Front: L C R, Side: L R, LFE
Sampling rate               : 48.0 KHz
Compression mode            : Lossy
Stream size                 : 262 MiB (14%)
Language                    : English
Default                     : No
Forced                      : No



Enlaces De Descarga #Enlace 3 en Mega.nz#

Alekzek
John Carpenters Apocalypse Trilogy 720p (60 Fps)

Quizás te interese

Inicio Ver Todo

Categorias

Lo más visto

Archivo