Lady Antebellum Wheels Up Tour 2015 [BrRip | 1080p]

Compartir:


SinopsisWheels Up Tour este concierto fue grabado en Irvine, CA., con apoyo del sexto álbum "747" del año 2014… El show comienza con "Long Stretch of Love" y termina la noche con "We Owned the Night".Ficha
Artista: Lady Antebellum
Título original: Lady Antebellum: Wheels Up Tour
Año: 2015
Duración: 1h 43min
País: EE.UU
Director: Peter Zavadil
Género: Concierto
#Enlace 1 en Www.imdb.com#
|
|MediaInfoCita:
MostrarCita:
MostrarComplete name : Lady Antebellum – Wheels Up Tour (2015).mkv
Format : Matroska
Format version : Version 4 / Version 2
File size : 6.35 GiB
Duration : 1h 43mn
Overall bit rate : 8 773 Kbps
Encoded date : UTC 2016-07-22 03:23:44
Writing application : mkvmerge v9.3.1 ('Mask Machine') 64bit
Writing library : libebml v1.3.4 + libmatroska v1.4.5
Video
ID : 1
Format : AVC
Format/Info : Advanced Video Codec
Format profile : #Enlace 2 en Ouo.io#
Format settings, CABAC : Yes
Format settings, ReFrames : 3 frames
Codec ID : V_MPEG4/ISO/AVC
Duration : 1h 43mn
Bit rate : 8 124 Kbps
Width : 1 920 pixels
Height : 1 080 pixels
Display aspect ratio : 16:9
Frame rate mode : Constant
Frame rate : 23.976 (24000/1001) fps
Color space : YUV
Chroma subsampling : 4:2:0
Bit depth : 8 bits
Scan type : Progressive
Bits/(Pixel*Frame) : 0.163
Stream size : 5.88 GiB (93%)
Writing library : x264 core 148 r2638 7599210
Encoding settings : cabac=1 / ref=4 / deblock=1:-1:-1 / analyse=0x3:0x113 / me=umh / subme=9 / psy=1 / psy_rd=1.00:0.15 / mixed_ref=1 / me_range=16 / chroma_me=1 / trellis=1 / 8x8dct=1 / cqm=0 / deadzone=21,11 / fast_pskip=1 / chroma_qp_offset=-3 / threads=6 / lookahead_threads=1 / sliced_threads=0 / nr=0 / decimate=1 / interlaced=0 / bluray_compat=0 / constrained_intra=0 / bframes=3 / b_pyramid=1 / b_adapt=2 / b_bias=0 / direct=3 / weightb=1 / open_gop=0 / weightp=2 / keyint=240 / keyint_min=23 / scenecut=40 / intra_refresh=0 / rc_lookahead=50 / rc=crf / mbtree=1 / crf=22.0 / qcomp=0.60 / qpmin=0 / qpmax=69 / qpstep=4 / vbv_maxrate=62500 / vbv_bufsize=78125 / crf_max=0.0 / nal_hrd=none / filler=0 / ip_ratio=1.40 / aq=1:1.00
Language : English
Default : Yes
Forced : No
Audio
ID : 2
Format : AC-3
Format/Info : Audio Coding 3
Mode extension : CM (complete main)
Format settings, Endianness : Big
Codec ID : A_AC3
Duration : 1h 43mn
Bit rate mode : Constant
Bit rate : 640 Kbps
Channel(s) : 6 channels
Channel positions : Front: L C R, Side: L R, LFE
Sampling rate : 48.0 KHz
Frame rate : 31.250 fps (1536 spf)
Compression mode : Lossy
Stream size : 475 MiB (7%)
Language : English
Default : Yes
Forced : No
Text #1
ID : 3
Format : PGS
Muxing mode : zlib
Codec ID : S_HDMV/PGS
Codec ID/Info : Picture based subtitle format used on BDs/HD-DVDs
Duration : 1h 40mn
Bit rate : 3 210 bps
Count of elements : 682
Stream size : 2.30 MiB (0%)
Language : Latin
Default : Yes
Forced : No
Text #2
ID : 4
Format : PGS
Muxing mode : zlib
Codec ID : S_HDMV/PGS
Codec ID/Info : Picture based subtitle format used on BDs/HD-DVDs
Duration : 1h 40mn
Bit rate : 3 624 bps
Count of elements : 768
Stream size : 2.59 MiB (0%)
Language : English
Default : No
Forced : NoInfo Archivo
Formato: MKV
Calidad: BrRip 1080p
Bit rate: crf=22.0 (8 773 Kbps)
Resolución: 1920×1080 píxeles
Audio: (Original) Inglés, AC-3 640 Kbps, 6 channels
Subtitulos: Español (.PGS)
Tamaño del archivo: 6,67 GB
Links: 13 de 500 MB | 1 de 332 MB | 5% de registro de Recuperación.Capturas


Enlaces De Descarga #Enlace 3 en Uptobox.com#

Descarga este programa para romper contraseñas

Publicaciones Relacionadas

« »