mr robot 2×01 [720p]

Compartir:

Mr. Robot es una serie de televisión
#Enlace 1 en Es.wikipedia.org#
creada por Sam Esmail.Se estrenó el #Enlace 2 en Es.wikipedia.org#
de #Enlace 3 en Es.wikipedia.org#
por la cadena
. El mismo día la serie se renovó para una segunda temporada que se lanzara el 13 de julio de 2016.
La serie sigue a Elliot ( #Enlace 4 en Es.wikipedia.org#
), un joven #Enlace 5 en Es.wikipedia.org#
que sufre algún tipo de trastorno, trabaja como ingeniero de
y usa sus habilidades para proteger a las personas por las que se preocupa. Elliot es reclutado por Mr. Robot( #Enlace 6 en Es.wikipedia.org#
), un misterioso líder de un grupo de Hackers quien quiere destruir a poderosos #Enlace 7 en Es.wikipedia.org#
de #Enlace 8 en Es.wikipedia.org#
que están manejando el mundo.
mr robot 2×01 720p


Serie de TV. Elliot Anderson es un joven y brillante programador con problemas para las relaciones sociales que durante el día trabaja como técnico de ciberseguridad de una importante empresa informática y por la noche es un desinteresado justiciero cibernético, que se verá envuelto en una oscura trama.
Format : Matroska
Format version : Version 4 / Version 2
File size : 958 MiB
Duration : 40mn 35s
Overall bit rate : 3 299 Kbps
Encoded date : UTC 2016-07-11 02:42:14
Writing application : mkvmerge v9.2.0 ('Photograph') 64bit
Writing library : libebml v1.3.3 + libmatroska v1.4.4
Video
ID : 1
Format : AVC
Format/Info : Advanced Video Codec
Format profile : #Enlace 9 en Ouo.io#
Format settings, CABAC : Yes
Format settings, ReFrames : 4 frames
Codec ID : V_MPEG4/ISO/AVC
Duration : 40mn 35s
Bit rate : 3 206 Kbps
Width : 1 280 pixels
Height : 720 pixels
Display aspect ratio : 16:9
Frame rate mode : Variable
Frame rate : 30.000 fps
Color space : YUV
Chroma subsampling : 4:2:0
Bit depth : 8 bits
Scan type : Progressive
Bits/(Pixel*Frame) : 0.116
Stream size : 931 MiB (97%)
Default : Yes
Forced : No
Audio
ID : 2
Format : AAC
Format/Info : Advanced Audio Codec
Format profile : LC
Codec ID : A_AAC
Duration : 40mn 35s
Bit rate : 90.2 Kbps
Channel(s) : 2 channels
Channel positions : Front: L R
Sampling rate : 44.1 KHz
Frame rate : 43.066 fps (1024 spf)
Compression mode : Lossy
Delay relative to video : 13ms
Stream size : 26.2 MiB (3%)
Default : Yes
Forced : No

Sin Pass

Descarga este programa para romper contraseñas

Publicaciones Relacionadas

« »